travismk
一代宗师

[更 早] [欧美] [喜剧] [4K-原盘] 夏日友晴天/卢卡 Luca.2021.2160p.BluRay.REMUX.HEVC.DTS-HD.MA.TrueHD.7.1.Atmos-FGT 47.56G

-->

帖子完整标题:夏日友晴天/卢卡 Luca.2021.2160p.BluRay.REMUX.HEVC.DTS-HD.MA.TrueHD.7.1.Atmos-FGT 47.56GB



◎译  名 夏日友晴天/卢卡/盛夏友晴天(港)/路卡的夏天(台)
◎片  名 Luca
◎年  代 2021
◎产  地 美国
◎类  别 喜剧 / 动画 / 奇幻 / 冒险
◎语  言 英语,意大利语
◎上映日期 2021-06-18(美国网络) / 2021-07(中国大陆)
◎豆瓣评分 7.3/10 from 19109 users
◎豆瓣链接 https://movie.douban.com/subject/35161768/
◎片  长 95分钟
◎导  演 埃里康·卡萨罗萨 Enrico Casarosa
◎编  剧 埃里康·卡萨罗萨 Enrico Casarosa / 杰西·安德鲁斯 Jesse Andrews / Simon Stephenson Simon Stephenson / 麦克·琼斯 Mike Jones / Julie Lynn Julie Lynn / 兰达尔·格林 Randall Green
◎主  演 雅各布·特伦布莱 Jacob Tremblay
      杰克·迪伦·格雷泽 Jack Dylan Grazer
      艾玛·伯曼 Emma Berman
      萨维里奥·雷蒙多 Saverio Raimondo
      玛娅·鲁道夫 Maya Rudolph
      萨莎·拜伦·科恩 Sacha Baron Cohen
      马可·巴里切利 Marco Barricelli
      吉姆·加菲根 Jim Gaffigan
      彼得·孙 Peter Sohn
      洛伦佐·克里斯奇 Lorenzo Crisci
      玛丽娜·马西罗尼 Marina Massironi
      吉诺·拉·莫妮卡 Gino La Monica
      桑迪·马丁 Sandy Martin
      嘉科莫·吉安尼欧缇 Giacomo Gianniotti
      艾莉莎·加布瑞利 Elisa Gabrielli
      咪咪·梅纳德 Mimi Maynard
      埃里康·卡萨罗萨 Enrico Casarosa
      吉姆·皮里 Jim Pirri
      Gino D'Acampo Gino D'Acampo
      德雷克·贝尔 Drake Bell
      约翰·拉岑贝格 John Ratzenberger
      乔纳森·尼科尔斯 Jonathan Nichols

◎标  签 动画 | 皮克斯 | 迪士尼 | Pixar | 2021 | 美国 | 奇幻 | Disney

◎简  介

  故事发生在意大利里维埃拉,讲述了一个小男孩卢卡(雅各布·特伦布莱 配音)在充满冰激凌、意大利面香气和摩托车骑行的夏天,经历的难忘成长之旅。卢卡与他新结交的好友(杰克·迪伦·格雷泽 配音)一起经历了这些冒险,但所有的乐趣都受到了一个深藏的秘密的威胁:他是一个来自海底世界的海怪。

Video
ID : 1
ID in the original source medium : 4113 (0x1011)
Format : HEVC
Format/Info : High Efficiency Video Coding
Format profile : Main [email protected]@High
HDR format : SMPTE ST 2086, HDR10 compatible
Codec ID : V_MPEGH/ISO/HEVC
Duration : 1 h 35 min
Bit rate : 52.3 Mb/s
Width : 3 840 pixels
Height : 2 160 pixels
Display aspect ratio : 16:9
Frame rate mode : Constant
Frame rate : 23.976 (24000/1001/189150) FPS
Color space : YUV
Chroma subsampling : 4:2:0 (Type 2)
Bit depth : 10 bits
Bits/(Pixel*Frame) : 0.263
Stream size : 34.8 GiB (73%)
Writing library : ATEME Titan File 3.9.6 (4.9.6.2)
Language : English
Default : No
Forced : No
Color range : Limited
Color primaries : BT.2020
Transfer characteristics : PQ
Matrix coefficients : BT.2020 non-constant
Mastering display color primaries : BT.2020
Mastering display luminance : min: 0.0001 cd/m2, max: 1000 cd/m2
Original source medium : Blu-ray

Audio #1
ID : 2
ID in the original source medium : 4352 (0x1100)
Format : MLP FBA 16-ch
Format/Info : Meridian Lossless Packing FBA with 16-channel presentation
Commercial name : Dolby TrueHD with Dolby Atmos
Codec ID : A_TRUEHD
Duration : 1 h 35 min
Bit rate mode : Variable
Bit rate : 6 071 kb/s
Maximum bit rate : 5 985 kb/s
Channel(s) : 8 channels
Channel layout : L R C LFE Ls Rs Lb Rb
Sampling rate : 48.0 kHz
Frame rate : 1 200.000 FPS (40 SPF)
Bit depth : 24 bits
Compression mode : Lossless
Stream size : 4.04 GiB (8%)
Title : TrueHD 7.1 Atmos
Language : English
Default : Yes
Forced : No
Original source medium : Blu-ray
Number of dynamic objects : 13
Bed channel count : 1 channel
Bed channel configuration : LFE

Audio #2
ID : 3
Format : DTS XLL
Format/Info : Digital Theater Systems
Commercial name : DTS-HD Master Audio
Codec ID : A_DTS
Duration : 1 h 35 min
Bit rate mode : Variable
Bit rate : 4 623 kb/s
Channel(s) : 8 channels
Channel layout : C L R LFE Lb Rb Lss Rss
Sampling rate : 48.0 kHz
Frame rate : 93.750 FPS (512 SPF)
Bit depth : 24 bits
Compression mode : Lossless
Stream size : 3.08 GiB (6%)
Title : DTS-HD MA 7.1
Language : English
Default : No
Forced : No

Audio #3
ID : 4
ID in the original source medium : 4352 (0x1100)
Format : AC-3
Format/Info : Audio Coding 3
Commercial name : Dolby Digital
Codec ID : A_AC3
Duration : 1 h 35 min
Bit rate mode : Constant
Bit rate : 640 kb/s
Channel(s) : 6 channels
Channel layout : L R C LFE Ls Rs
Sampling rate : 48.0 kHz
Frame rate : 31.250 FPS (1536 SPF)
Compression mode : Lossy
Stream size : 436 MiB (1%)
Title : DD 5.1
Language : English
Service kind : Complete Main
Default : No
Forced : No
Original source medium : Blu-ray

Audio #4
ID : 5
Format : E-AC-3
Format/Info : Enhanced AC-3
Commercial name : Dolby Digital Plus
Format profile : Blu-ray Disc
Codec ID : A_EAC3
Duration : 1 h 35 min
Bit rate mode : Constant
Bit rate : 1 024 kb/s
Channel(s) : 8 channels
Channel layout : L R C LFE Ls Rs Lb Rb
Sampling rate : 48.0 kHz
Frame rate : 31.250 FPS (1536 SPF)
Compression mode : Lossy
Stream size : 698 MiB (1%)
Title : DDP 7.1
Language : English
Service kind : Complete Main
Default : No
Forced : No

Audio #5
ID : 6
ID in the original source medium : 4353 (0x1101)
Format : AC-3
Format/Info : Audio Coding 3
Commercial name : Dolby Digital
Codec ID : A_AC3
Duration : 1 h 35 min
Bit rate mode : Constant
Bit rate : 576 kb/s
Channel(s) : 6 channels
Channel layout : L R C LFE Ls Rs
Sampling rate : 48.0 kHz
Frame rate : 31.250 FPS (1536 SPF)
Compression mode : Lossy
Stream size : 392 MiB (1%)
Title : DD 5.1
Language : English
Service kind : Complete Main
Default : No
Forced : No
Original source medium : Blu-ray

Audio #6
ID : 7
ID in the original source medium : 4354 (0x1102)
Format : AC-3
Format/Info : Audio Coding 3
Commercial name : Dolby Digital
Codec ID : A_AC3
Duration : 1 h 35 min
Bit rate mode : Constant
Bit rate : 640 kb/s
Channel(s) : 6 channels
Channel layout : L R C LFE Ls Rs
Sampling rate : 48.0 kHz
Frame rate : 31.250 FPS (1536 SPF)
Compression mode : Lossy
Stream size : 436 MiB (1%)
Title : DD 5.1
Language : English
Service kind : Complete Main
Default : No
Forced : No
Original source medium : Blu-ray

Audio #7
ID : 8
ID in the original source medium : 4355 (0x1103)
Format : AC-3
Format/Info : Audio Coding 3
Commercial name : Dolby Digital
Codec ID : A_AC3
Duration : 1 h 35 min
Bit rate mode : Constant
Bit rate : 320 kb/s
Channel(s) : 2 channels
Channel layout : L R
Sampling rate : 48.0 kHz
Frame rate : 31.250 FPS (1536 SPF)
Compression mode : Lossy
Stream size : 218 MiB (0%)
Title : DD 2.0
Language : English
Service kind : Complete Main
Default : No
Forced : No
Original source medium : Blu-ray

Audio #8
ID : 9
ID in the original source medium : 4356 (0x1104)
Format : AC-3
Format/Info : Audio Coding 3
Commercial name : Dolby Digital
Codec ID : A_AC3
Duration : 1 h 35 min
Bit rate mode : Constant
Bit rate : 320 kb/s
Channel(s) : 2 channels
Channel layout : L R
Sampling rate : 48.0 kHz
Frame rate : 31.250 FPS (1536 SPF)
Compression mode : Lossy
Stream size : 218 MiB (0%)
Title : DD 2.0
Language : English
Service kind : Complete Main
Default : No
Forced : No
Original source medium : Blu-ray

Audio #9
ID : 10
Format : E-AC-3
Format/Info : Enhanced AC-3
Commercial name : Dolby Digital Plus
Format profile : Blu-ray Disc
Codec ID : A_EAC3
Duration : 1 h 35 min
Bit rate mode : Constant
Bit rate : 1 024 kb/s
Channel(s) : 8 channels
Channel layout : L R C LFE Ls Rs Lb Rb
Sampling rate : 48.0 kHz
Frame rate : 31.250 FPS (1536 SPF)
Compression mode : Lossy
Stream size : 698 MiB (1%)
Title : DDP 7.1
Language : French
Service kind : Complete Main
Default : No
Forced : No

Audio #10
ID : 11
ID in the original source medium : 4357 (0x1105)
Format : AC-3
Format/Info : Audio Coding 3
Commercial name : Dolby Digital
Codec ID : A_AC3
Duration : 1 h 35 min
Bit rate mode : Constant
Bit rate : 576 kb/s
Channel(s) : 6 channels
Channel layout : L R C LFE Ls Rs
Sampling rate : 48.0 kHz
Frame rate : 31.250 FPS (1536 SPF)
Compression mode : Lossy
Stream size : 392 MiB (1%)
Title : DD 5.1
Language : French
Service kind : Complete Main
Default : No
Forced : No
Original source medium : Blu-ray

Audio #11
ID : 12
Format : E-AC-3
Format/Info : Enhanced AC-3
Commercial name : Dolby Digital Plus
Format profile : Blu-ray Disc
Codec ID : A_EAC3
Duration : 1 h 35 min
Bit rate mode : Constant
Bit rate : 1 024 kb/s
Channel(s) : 8 channels
Channel layout : L R C LFE Ls Rs Lb Rb
Sampling rate : 48.0 kHz
Frame rate : 31.250 FPS (1536 SPF)
Compression mode : Lossy
Stream size : 698 MiB (1%)
Title : DDP 7.1
Language : Spanish
Service kind : Complete Main
Default : No
Forced : No

Audio #12
ID : 13
ID in the original source medium : 4358 (0x1106)
Format : AC-3
Format/Info : Audio Coding 3
Commercial name : Dolby Digital
Codec ID : A_AC3
Duration : 1 h 35 min
Bit rate mode : Constant
Bit rate : 576 kb/s
Channel(s) : 6 channels
Channel layout : L R C LFE Ls Rs
Sampling rate : 48.0 kHz
Frame rate : 31.250 FPS (1536 SPF)
Compression mode : Lossy
Stream size : 392 MiB (1%)
Title : DD 5.1
Language : Spanish
Service kind : Complete Main
Default : No
Forced : No
Original source medium : Blu-ray

Audio #13
ID : 14
Format : E-AC-3
Format/Info : Enhanced AC-3
Commercial name : Dolby Digital Plus
Format profile : Blu-ray Disc
Codec ID : A_EAC3
Duration : 1 h 35 min
Bit rate mode : Constant
Bit rate : 1 024 kb/s
Channel(s) : 8 channels
Channel layout : L R C LFE Ls Rs Lb Rb
Sampling rate : 48.0 kHz
Frame rate : 31.250 FPS (1536 SPF)
Compression mode : Lossy
Stream size : 698 MiB (1%)
Title : DDP 7.1
Language : Italian
Service kind : Complete Main
Default : No
Forced : No

Audio #14
ID : 15
ID in the original source medium : 4359 (0x1107)
Format : AC-3
Format/Info : Audio Coding 3
Commercial name : Dolby Digital
Codec ID : A_AC3
Duration : 1 h 35 min
Bit rate mode : Constant
Bit rate : 576 kb/s
Channel(s) : 6 channels
Channel layout : L R C LFE Ls Rs
Sampling rate : 48.0 kHz
Frame rate : 31.250 FPS (1536 SPF)
Compression mode : Lossy
Stream size : 392 MiB (1%)
Title : DD 5.1
Language : Italian
Service kind : Complete Main
Default : No
Forced : No
Original source medium : Blu-ray

Text #1
ID : 16
Format : UTF-8
Codec ID : S_TEXT/UTF8
Codec ID/Info : UTF-8 Plain Text
Duration : 1 h 33 min
Bit rate : 58 b/s
Count of elements : 1548
Stream size : 39.9 KiB (0%)
Title : SRT
Language : English
Default : Yes
Forced : No

Text #2
ID : 17
ID in the original source medium : 4768 (0x12A0)
Format : PGS
Muxing mode : zlib
Codec ID : S_HDMV/PGS
Codec ID/Info : Picture based subtitle format used on BDs/HD-DVDs
Duration : 1 h 34 min
Bit rate : 50.3 kb/s
Count of elements : 3981
Stream size : 34.0 MiB (0%)
Language : English
Default : No
Forced : No
Original source medium : Blu-ray

Text #3
ID : 18
ID in the original source medium : 4769 (0x12A1)
Format : PGS
Muxing mode : zlib
Codec ID : S_HDMV/PGS
Codec ID/Info : Picture based subtitle format used on BDs/HD-DVDs
Duration : 1 h 34 min
Bit rate : 30.9 kb/s
Count of elements : 2381
Stream size : 20.9 MiB (0%)
Language : French
Default : No
Forced : No
Original source medium : Blu-ray

Text #4
ID : 19
ID in the original source medium : 4770 (0x12A2)
Format : PGS
Muxing mode : zlib
Codec ID : S_HDMV/PGS
Codec ID/Info : Picture based subtitle format used on BDs/HD-DVDs
Duration : 1 h 34 min
Bit rate : 34.7 kb/s
Count of elements : 2610
Stream size : 23.4 MiB (0%)
Language : Spanish
Default : No
Forced : No
Original source medium : Blu-ray

Text #5
ID : 20
ID in the original source medium : 4771 (0x12A3)
Format : PGS
Muxing mode : zlib
Codec ID : S_HDMV/PGS
Codec ID/Info : Picture based subtitle format used on BDs/HD-DVDs
Duration : 1 h 34 min
Bit rate : 30.9 kb/s
Count of elements : 2543
Stream size : 20.8 MiB (0%)
Language : Italian
Default : No
Forced : No
Original source medium : Blu-ray

Text #6
ID : 21
Format : PGS
Muxing mode : zlib
Codec ID : S_HDMV/PGS
Codec ID/Info : Picture based subtitle format used on BDs/HD-DVDs
Duration : 1 h 34 min
Bit rate : 50.8 kb/s
Count of elements : 3982
Stream size : 34.3 MiB (0%)
Language : English
Default : No
Forced : No

Menu
00:00:00.000 : Chapter 01
00:02:27.897 : Chapter 02
00:06:26.928 : Chapter 03
00:08:29.884 : Chapter 04
00:11:19.512 : Chapter 05
00:14:35.291 : Chapter 06
00:16:30.197 : Chapter 07
00:17:07.735 : Chapter 08
00:21:19.486 : Chapter 09
00:23:31.785 : Chapter 10
00:26:01.226 : Chapter 11
00:28:11.815 : Chapter 12
00:32:55.515 : Chapter 13
00:35:39.971 : Chapter 14
00:37:28.996 : Chapter 15
00:41:38.204 : Chapter 16
00:42:25.876 : Chapter 17
00:45:04.118 : Chapter 18
00:46:06.680 : Chapter 19
00:48:53.513 : Chapter 20
00:51:00.098 : Chapter 21
00:52:04.746 : Chapter 22
00:54:33.561 : Chapter 23
00:56:18.833 : Chapter 24
00:58:30.340 : Chapter 25
01:00:07.520 : Chapter 26
01:00:43.514 : Chapter 27
01:02:10.059 : Chapter 28
01:04:51.888 : Chapter 29
01:06:49.088 : Chapter 30
01:09:33.711 : Chapter 31
01:13:19.978 : Chapter 32
01:16:47.352 : Chapter 33
01:19:33.393 : Chapter 34
01:20:53.723 : Chapter 35
01:24:34.944 : Chapter 36
01:33:41.532 : Chapter 37





1 个附件 售价 大小 下载 时间

Luca.2021.2160p.BluRay.REMUX.HEVC.DTS-HD.MA.TrueHD.7.1.Atmos-FGT.torrent 0 金币 60.12K 1177 次 1月前

#1楼
发帖时间:2021-07-30 14:16:34   |   回复数:0
游客组