q3r3
一代宗师

[2021] [欧美] [喜剧] [WEB-4K] 黑白魔女库伊拉[国英双语/中英双字][email protected]

-->

完整标题:黑白魔女库伊拉[国英双语/中英双字][email protected]OM 13.82GB



◎译  名 黑白魔女库伊拉 / 库伊拉 / 黑白魔后(港) / 时尚恶女:库伊拉(台) / 黑白魔女 / 《101忠狗》真人前传 / 库伊拉·德维尔 / Cruella de Vil
◎片  名 Cruella
◎年  代 2021
◎产  地 美国
◎类  别 喜剧 / 犯罪
◎语  言 英语
◎上映日期 2021-06-06(中国大陆) / 2021-05-28(美国/美国网络)
◎IMDb链接 https://www.imdb.com/title/tt3228774/
◎豆瓣评分 7.0/10 (109534人评价)
◎豆瓣链接 https://movie.douban.com/subject/26703121/
◎片  长 134分钟
◎导  演 克雷格·吉勒斯佩 Craig Gillespie (id:1284873)
◎编  剧 达纳·福克斯 Dana Fox (id:1354750)
      托尼·麦克纳马拉 Tony McNamara (id:1303592)
      艾莲·布洛什·麦肯纳 Aline Brosh McKenna (id:1022993)
      凯莉·马塞尔 Kelly Marcel (id:1115889)
      史蒂夫·齐西斯 Steve Zissis (id:1171259)
      道迪·史密斯 Dodie Smith (id:1045683)
      杰斯·巴特沃斯 Jez Butterworth (id:1340066)
◎演  员 艾玛·斯通 Emma Stone (id:1040506)
      艾玛·汤普森 Emma Thompson (id:1054514)
      乔尔·弗莱 Joel Fry (id:1352741)
      保罗·沃尔特·豪泽 Paul Walter Hauser (id:1268250)
      约翰·麦克雷 John McCrea (id:1434703)
      艾米丽·比查姆 Emily Beecham (id:1316324)
      马克·斯特朗 Mark Strong (id:1274374)
      凯万·诺瓦克 Kayvan Novak (id:1193055)
      柯尔比·豪威尔-巴普蒂斯特 Kirby Howell-Baptiste (id:1368155)
      詹米·德米特鲁 Jamie Demetriou (id:1373219)
      尼亚姆·林奇 Niamh Lynch (id:1436662)
      安德鲁·梁 Andrew Leung (id:1327168)
      艾德·伯奇 Ed Birch (id:1337343)
      迪伦·洛 Dylan Lowe (id:1457671)
      保罗·巴泽利 Paul Bazely (id:1387267)
      亚伯拉罕·波波拉 Abraham Popoola (id:1457672)
      里奥·比尔 Leo Bill (id:1189147)
      妮妮特·芬奇 Ninette Finch (id:1440766)
      莎拉·克劳登 Sarah Crowden (id:1433016)
      阿斯玛拉·加布里埃 Asmara Gabrielle (id:1457673)
      汤姆·特纳 Tom Turner (id:1454190)
      托马斯·派登 Thomas Padden (id:1362808)
      克里斯·雷曼 Chris Ryman (id:1192122)
      安部春香 Haruka Abe (id:1253645)
      珍妮特·亨弗瑞 Janet Henfrey (id:1342885)
      杰奎琳·陈 Jacqueline Chan (id:1359606)
      赫梅尔妮·加利福德 Hermione Gulliford (id:1346356)
      彼得·辛格 Peter Singh (id:1374100)
      保罗·乔杜里 Paul Chowdhry (id:1069297)
      蒂姆·斯蒂德 Tim Steed (id:1434132)
      乔舒亚·希尔 Joshua Hill (id:1345824)
      简·豪 Jane How (id:1101603)
      杰拉丁·菲茨杰拉德 Geraldine Fitzgerald (id:1036686)
      蒂珀·塞弗特·克利夫兰 Tipper Seifert-Cleveland (id:1395478)
      吉安尼·卡尔切蒂 Gianni Calchetti (id:1445091)
      贝恩·科拉科 Bern Colla?o (id:1394212)
      妮科尔·亨布拉 Nicholle Hembra (id:1434456)
      阿图尔·夏尔马 Atul Sharma (id:1397360)
      艾薇·维 Evie Wray (id:1333557)
      马汀·麦格 Martyn Mayger (id:1368245)
      约翰·艾伦·罗伯茨 John Alan Roberts (id:1442711)
      杰奎琳·拉姆娜莱恩 Jacqueline Ramnarine (id:1395000)
      贾格·帕特尔 Jag Patel (id:1392994)
      尼克·欧文福特 Nick Owenford (id:1362807)
      伊斯雷尔·鲁兹 Israel Ruiz (id:1199375)
      贾文?普林斯 Javone Prince (id:1394556)
      史蒂夫·埃奇 Steve Edge (id:1200917)
      布鲁贝尔 Bluebell (id:1457722)
      吉斯摩 Gizmo (id:1457717)
      库珀 Cooper (id:1457716)
      波比 Bobby (id:1457714)
      阿尔菲 Alfie (id:1457712)
      昆西 Quince (id:1457757)
      安德鲁·甘恩 Andrew Gunn (id:1095734)
      马克·普拉特 Marc Platt (id:1294606)
      艾玛·斯通 Emma Stone (id:1040506)
      米歇尔·赖特 Michelle Wright (id:1203769)
      格伦·克洛斯 Glenn Close (id:1031875)
      尼古拉斯·卡拉卡萨尼斯 Nicolas Karakatsanis (id:1423432)
      达伦·塔比 Darren Tubby (id:1423433)
      珍妮·碧万 Jenny Beavan (id:1278169)
      露西·贝文 Lucy Bevan (id:1423431)

◎标  签 迪士尼 / 时尚 / 美国 / 奇幻 / 喜剧 / 2021 / 犯罪 / 电影

◎简  介
  影片改编自道迪·史密斯的小说,故事设定在20世纪70年代朋克摇滚革命时期的伦敦,讲述了一个名叫艾丝黛拉(艾玛·斯通 饰)的年轻骗子的故事。艾丝黛拉是一个聪明又有创意的女孩,她决心用自己的设计让自己出名。她和一对欣赏她的恶作剧嗜好的小偷交上了朋友,并能够一起在伦敦的街道上建立自己的生活。有一天,艾丝黛拉的时尚品味吸引了冯·赫尔曼男爵夫人(艾玛·汤普森 饰)的眼球,她是一位时尚界的传奇人物,拥有毁灭性的时尚和可怕的高雅,但他们的关系引发了一系列事件,导致艾丝黛拉去拥抱她的邪恶一面,成为了兼具疯狂、时尚和报复心的库伊拉。

##### MediaInfo ######
General
Unique ID : 214240323803500694041702089407070420737 (0xA12D2F7C53DAB331AA67AA40CDC33F01)
Complete name : 黑白魔女库伊拉[email protected]OM.mkv
Format : Matroska
Format version : Version 4
File size : 13.8 GiB
Duration : 2 h 8 min
Overall bit rate : 15.3 Mb/s
Encoded date : UTC 2021-07-29 10:02:26
Writing application : mkvmerge v52.0.0 ('Secret For The Mad') 64-bit
Writing library : libebml v1.4.1 + libmatroska v1.6.2

Video
ID : 1
Format : HEVC
Format/Info : High Efficiency Video Coding
Format profile : [email protected]@Main
Codec ID : V_MPEGH/ISO/HEVC
Duration : 2 h 8 min
Bit rate : 15.1 Mb/s
Width : 3 988 pixels
Height : 2 160 pixels
Display aspect ratio : 1.85:1
Frame rate mode : Constant
Frame rate : 25.000 FPS
Standard : Component
Color space : YUV
Chroma subsampling : 4:2:0
Bit depth : 8 bits
Bits/(Pixel*Frame) : 0.070
Stream size : 13.6 GiB (98%)
Writing library : x265 2.8:[Linux][GCC 4.8.5][64 bit] 8bit+10bit+12bit
Encoding settings : cpuid=1111039 / frame-threads=6 / wpp / no-pmode / no-pme / no-psnr / no-ssim / log-level=2 / input-csp=1 / input-res=3988x2160 / interlace=0 / total-frames=0 / level-idc=0 / high-tier=1 / uhd-bd=0 / ref=3 / no-allow-non-conformance / repeat-headers / annexb / no-aud / no-hrd / info / hash=0 / no-temporal-layers / open-gop / min-keyint=1 / keyint=5 / gop-lookahead=0 / bframes=2 / b-adapt=2 / no-b-pyramid / bframe-bias=0 / rc-lookahead=20 / lookahead-slices=8 / scenecut=0 / radl=0 / no-intra-refresh / ctu=64 / min-cu-size=8 / no-rect / no-amp / max-tu-size=32 / tu-inter-depth=1 / tu-intra-depth=1 / limit-tu=0 / rdoq-level=0 / dynamic-rd=0.00 / no-ssim-rd / signhide / no-tskip / nr-intra=0 / nr-inter=0 / no-constrained-intra / strong-intra-smoothing / max-merge=2 / limit-refs=3 / no-limit-modes / me=1 / subme=2 / merange=57 / temporal-mvp / weightp / no-weightb / no-analyze-src-pics / deblock=0:0 / sao / no-sao-non-deblock / rd=3 / no-early-skip / rskip / no-fast-intra / no-tskip-fast / no-cu-lossless / no-b-intra / no-splitrd-skip / rdpenalty=0 / psy-rd=0.00 / psy-rdoq=0.00 / no-rd-refine / no-lossless / cbqpoffs=0 / crqpoffs=0 / rc=cbr / bitrate=15000 / qcomp=0.60 / qpstep=4 / stats-write=0 / stats-read=0 / vbv-maxrate=15000 / vbv-bufsize=15000 / vbv-init=0.9 / ipratio=1.40 / pbratio=1.00 / aq-mode=1 / aq-strength=0.00 / cutree / zone-count=0 / strict-cbr / qg-size=32 / no-rc-grain / qpmax=69 / qpmin=0 / no-const-vbv / sar=255 / sar-width / : / sar-height=12960:12961 / overscan=0 / videoformat=0 / range=0 / colorprim=2 / transfer=2 / colormatrix=2 / chromaloc=0 / display-window=0 / max-cll=0,0 / min-luma=0 / max-luma=255 / log2-max-poc-lsb=8 / vui-timing-info / vui-hrd-info / slices=1 / no-opt-qp-pps / no-opt-ref-list-length-pps / no-multi-pass-opt-rps / scenecut-bias=0.05 / no-opt-cu-delta-qp / no-aq-motion / no-hdr / no-hdr-opt / no-dhdr10-opt / no-idr-recovery-sei / analysis-reuse-level=5 / scale-factor=0 / refine-intra=0 / refine-inter=0 / refine-mv=0 / no-limit-sao / ctu-info=0 / no-lowpass-dct / refine-mv-type=0 / copy-pic=1 / max-ausize-factor=1.0 / no-dynamic-refine / no-single-sei
Language : English
Default : Yes
Forced : No
Color range : Limited

Audio #1
ID : 2
Format : AAC LC
Format/Info : Advanced Audio Codec Low Complexity
Codec ID : A_AAC-2
Duration : 2 h 8 min
Bit rate : 125 kb/s
Channel(s) : 2 channels
Channel layout : L R
Sampling rate : 48.0 kHz
Frame rate : 46.875 FPS (1024 SPF)
Compression mode : Lossy
Stream size : 116 MiB (1%)
Title : English
Language : English
Default : Yes
Forced : No

Audio #2
ID : 3
Format : AAC LC
Format/Info : Advanced Audio Codec Low Complexity
Codec ID : A_AAC-2
Duration : 2 h 8 min
Bit rate : 125 kb/s
Channel(s) : 2 channels
Channel layout : L R
Sampling rate : 48.0 kHz
Frame rate : 46.875 FPS (1024 SPF)
Compression mode : Lossy
Stream size : 116 MiB (1%)
Title : Chinese
Language : Chinese
Default : No
Forced : No




1 个附件 售价 大小 下载 时间

黑白魔女库伊拉[国英双语+中英双字][email protected]OM 13.82GB.torrent 0 金币 39.23K 10049 次 1月前

#1楼
发帖时间:2021-07-30 13:49:42   |   回复数:3
liyouchai
隐世仙人♂
谢谢楼主分享资源
1月前 #2楼
荒原·猎人
武林盟主
谢谢分享~支持一个~赞一个~辛苦了~
1月前 #3楼
qq262935862
武林高手
谢谢楼主分享资源
1月前 #4楼
游客组