q3r3
一代宗师

[2021] [大陆] [WEB-1080P] 东北老丈人[国语中字][email protected].COM

-->

完整标题:东北老丈人[国语中字][email protected].COM 26.69GB



◎译  名 东北老丈人 / Northeast father-in-law
◎年  代 2021
◎产  地 中国大陆
◎语  言 汉语普通话
◎上映日期 2021-07-29(中国大陆)
◎IMDb链接 https://www.imdb.com/title//
◎豆瓣链接 https://movie.douban.com/subject/35546584/

◎标  签 土嗨剧 / 网络大电影 / 土剧 / 喜剧 / 大陆 / 国产 / 东北村逼剧 / 2021

◎简  介
  刘老四在女儿小时候给定了娃娃亲,女儿长大了却想反悔,王守田用刘老四二十年前的秘密做要挟。刘老四无奈进城,准备把女儿接回来结婚,结果一进城,他便发现女儿早已经有了男朋友小杜,而这个小杜就是进城把自己大鹅坑丢的人。刘老四一直借机想挤兑走小杜,带佳佳回去。中间却在大城市的酒吧,洗浴中心里频频闯祸。最后通过小杜一系列的表现,老四认可了小杜。就在这时,王守田知道老四有了新女婿,一怒之下带人追到城里,想要当众说出了秘密……

##### MediaInfo ######
General
Complete name : 东北老丈人[email protected].COM.mp4
Format : MPEG-4
Format profile : Base Media / Version 2
Codec ID : mp42 (mp42/mp41)
File size : 26.7 GiB
Duration : 1 h 20 min
Overall bit rate mode : Variable
Overall bit rate : 47.7 Mb/s
Encoded date : UTC 2021-07-22 16:11:06
Tagged date : UTC 2021-07-22 17:48:23
TIM : 00:00:00:00
TSC : 25
TSZ : 1

Video
ID : 1
Format : AVC
Format/Info : Advanced Video Codec
Format profile : [email protected]
Format settings : CABAC / 4 Ref Frames
Format settings, CABAC : Yes
Format settings, Reference frames : 4 frames
Codec ID : avc1
Codec ID/Info : Advanced Video Coding
Duration : 1 h 20 min
Bit rate : 47.4 Mb/s
Width : 1 920 pixels
Height : 820 pixels
Display aspect ratio : 2.35:1
Frame rate mode : Constant
Frame rate : 25.000 FPS
Color space : YUV
Chroma subsampling : 4:2:0
Bit depth : 8 bits
Scan type : Progressive
Bits/(Pixel*Frame) : 1.204
Stream size : 26.5 GiB (99%)
Language : English
Encoded date : UTC 2021-07-22 16:11:07
Tagged date : UTC 2021-07-22 16:11:07
Color range : Limited
Color primaries : BT.709
Transfer characteristics : BT.709
Matrix coefficients : BT.709
Codec configuration box : avcC

Audio
ID : 2
Format : AAC LC
Format/Info : Advanced Audio Codec Low Complexity
Codec ID : mp4a-40-2
Duration : 1 h 20 min
Source duration : 1 h 20 min
Bit rate mode : Variable
Bit rate : 317 kb/s
Maximum bit rate : 465 kb/s
Channel(s) : 2 channels
Channel layout : L R
Sampling rate : 48.0 kHz
Frame rate : 46.875 FPS (1024 SPF)
Compression mode : Lossy
Stream size : 182 MiB (1%)
Source stream size : 182 MiB (1%)
Language : English
Encoded date : UTC 2021-07-22 16:11:07
Tagged date : UTC 2021-07-22 16:11:07




1 个附件 售价 大小 下载 时间

东北老丈人[国语中字][email protected].COM 26.69GB.torrent 0 金币 71.39K 5513 次 1月前

#1楼
发帖时间:2021-07-30 13:48:30   |   回复数:3
liyouchai
隐世仙人♂
谢谢楼主分享资源
1月前 #2楼
kola13
武林盟主
感谢分享站
1月前 #3楼
chulps
一代宗师
~ 珍惜+支持 ~
1月前 #4楼
游客组